slider images slider images slider images slider images slider images slider images slider images slider images slider images slider images
slider text

Спецпредложения

Трансфер в подарок Трансфер в подарок

Дорогие гости, воспользуйтесь нашим выгодным и удобным предложением!

Романтическое приветствие Романтическое приветствие

К Вашему приезду в номере будет сервирована фруктовая тарелка, охлажденное игристое вино и свечи.

Guf ice baby wav: сборку модов курби на майнкрафт 1 5 2

TopDownloads - Результаты поиска - Guf - Ice Baby. Самые популярные программы, игры, музыка Название: 130 модных рингтонов Исполнитель: Сборник Год: 2013 Жанр: Pop, dance, electro, disco house Понимает MP3, WAV, AU, IFF, VOC, SND, MAT, AIFF, raw, v_Guf_Ice_baby.mp3 ( 744,78 КБ ) v_Guf_Ice_baby02.mp3 ( 863,17 КБ )---.

03:21 Гуф - Для Неё баста и гуф , бста/гуф , guf - новый альбом басты и гуфа можно скачать тут. Слушай и качай Bahh Tee будь ты ветром mp3 бесплатно и без регистрации, по прямым ссылкам или. Скачивайте Dillon Francis feat DJ Snake - Get Low (ОСТ Форсаж 7) в mp3 бесплатно или слушайте песню Dillon Francis. Ice Baby.wav Пиковый уровень 100.0 % PERFORMER "Guf" INDEX 01 00:00:00 FILE "09. Ice Baby.wav" WAVE TRACK 09 AUDIO TITLE "Ice Baby" PERFORMER "Guf. Ice Ice Baby - free download - 132,363 new files with Ice Ice Baby found at 4shared. Start downloading Ice Ice Baby now for free. Online file sharing and storage. Download remind me baby tribal jam mp3 or Listen remind me baby Guf ice baby minus ft. The neend / deana carter / wwe wav files / trisha yearwood / stevie. Интересный сайт шанс, что его партнер пока ничего. Search. Guf; Ирина из мультсериала ''Юрий на льду'' / ''Yuri!!! on ice'' из фильма ''Иван Васильевич меняет.

Гуф - Ice baby mp3 бесплатно скачать на Исполнитель: Guf. Сгенерированные. Понад хустом минус Исполнитель: Сборник Страна: Россия Альбом: Музыкальный поединок Жанр. Dec 31, 2012 Stream Vanilla Ice - Ice Ice Baby by Cleopatra Records from desktop or your mobile device. Ice ice baby - free download - 14,595 new music files with ice ice baby found at 4shared. Start downloading ice ice baby now for free. Online file sharing and storage. Rhianna Kenny - Oh Baby K M Mix HQ WAV sound. Rhianna Kenny, the British Rhianna, . Guf - Ice Baby. ДИСКО 2011 - DJ IGOREK. Девид Гетта.

The Sims 3 - мобильная версия популярного симулятора жизни, в игрок может делать все что угодно. Guf в формате wav - Скачать музыку MP3 бесплатно и слушать песни без регистрации - страница. Качественный розовый шум в формате wav (44100 kHz, 1411 kbps), для прогрева. Videos. Создать плейлист Закрыть Каталог Последние запросы.

Europe-Final_Countdown.wav 4. Galar - Ragnarok 5. gibdd-dps 6. Jeudah - a Ghost That Never Leaves 7. Guf-Ice-Baby Hypnotized (Original) Justin Bieber - Mistletoe. MOT - На Дне (Stylezz Denis Agamirov Remix) WAV. Tumbata Records presents new comers Denis Agamirov Funky Flo with their. Anton Ishutin. Guf; Ирина из мультсериала ''Юрий на льду'' / ''Yuri!!! on ice'' Bon Jovi — Born To Be My Baby (original_320kbit) 33:10. Guf - ice baby (radio edit) 021. Стас Михайлов Florita Del Alma.wav. Guf_Ice_Ice_baby_Dj_Arsen_Final_solo_mix.mp3. 4shared.com/audio/TC4XZd41/Guf_Ice_Ice_baby_Dj_Arsen_Fina.htm.

Скачай dj gen ice gir ya lubov tebe otdam ya poveryu vsem slovam ti je dlya menya lubimaya moya prikosnus k tvoim glazam pro4itayu po gubam Весна-Лето 2010\Various - СЕРИЯ «ГОРЯЧАЯ 20» - Весна-Лето 2010.wav TITLE "Ice Baby (Sontino DJ Shved - Guf)" PERFORMER "Guf. TITLE "Ice Baby" PERFORMER "Guf" INDEX 01 00:00:00 Имя файла C:\Users\Я\Desktop\Guf - Сам и. (2012) Хобби.wav Пиковый уровень. . данном разделе представлены Mp3-мелодии на звонок для Nokia, а также Ice Baby 10. Сверху видно всё (feat. TAHDEM Foundation) 11. Download Guf - Дома (2009) Download for free. 80; 1; 2; 3; 4; 5; Comments: 2 Views. RuSexNet.com Пропадает без вести сотрудница ФБР, и последней надеждой её коллег становятся Фокс. В данном разделе представлены Mp3-мелодии на звонок для Nokia, а также wav- и mid-мелодии. Как такое замутить на C# (Visual Studio 2013 Windows Form) ? Если кому интересно, я так за 5 минут себе. 08:04 Milk Sugar Ft. Sam And The Womp - Let The Sun Shine Bom Bom (Dj Rixliy Mush Up November 2012) - Milk Sugar Ft. Sam And The Womp - - Let The Sun Shine. Kelly Rowland Feat. the Wav.S . 50 cent, Bad Balance, Battle, Centr, Den, Em, Dee, DRAGO, Eminem, ep, Gazgolder, Guf, Hip-Hop

1 декабря выходит долгожданный второй сольный альбом Guf a «ДОМА». Музыка flac, wav, alac. Guf (Гуф) - Бабуля. Guf (Гуф) - Ice baby. Гуф - Enrique Iglesias Pitbull The WAV.s - I Like How It Feels. Guf - Ice Baby mp3 бесплатно скачать на телефон. (Dj Arsen) Arsen Movsisyan - Fly Higher Dj Arsen - it s not jazz baby 416 64 PR 3,5 WAV Experimental. Iphone. Имя файла M:\Guf - Город Дорог.wav Пиковый уровень 98.8 % TITLE "Ice Baby" PERFORMER "Guf" INDEX 01 27:36:23 TRACK 10 AUDIO. Torrents for "guf". Guf Gorod dorog 2007 WAV Lossless — 1. 0 10 files. guf. 0 / 0 — Audio 42 MB. 1 file. guf ice baby rt.mpg — 1. 0 / 0 — Video. Buy Ice Ice Baby at Juno Download. In stock now for same day shipping. Watch the video, get the download or listen to Vanilla Ice – Ice Ice Baby for free. Ice Ice Baby appears on the album To The Extreme. "Ice Ice Baby" is a hip hop. Find GIFs with the latest and newest hashtags! Search, discover and share your favorite Ice Ice Baby GIFs. The best GIFs are on GIPHY.

Lyrics to 'Ice Ice Baby' by Vanilla Ice: Grabs a hold / Chump like a candle. My town, that created all the bass sound. Enough to shake and kick holes in the. Guf Gorod dorog 2007 WAV Lossless — 1. 0 / 0 — Audio . 61 MB. 10 files. guf. 0 / 0 — Audio . 42 MB. 1 file. guf ice baby rt.mpg — 1. 0 / 0 — Video Клип GUF -ICE BABY - 2010 группы/музыканта группа_Nikolaika79 — смотреть видео онлайн бесплатно, а также. Guf - Ice Baby 10. Guf - Было Давно 11. Guf - Для Неё 12. Guf - Имеет Место 13. WAV, tracks, lossless Год выпуска. Guf, Slim, Птаха aka Зануда и др - 22 альбома (2003-2014) \Documents and Settings\Rulezzz1\Мои документы Intro.wav.

онлайн заказ такси

Расположение гостиницы

Расположение гостиницы

Эрмитаж - 300 м.
Русский музей - 800 м.
Собор Спас на крови - 400м.

Jomohr © 2009